Zone Telechargement

Dernières actualités du site :

16/09 - Ça : Chapitre 2 New!
16/09 - The Bay Saison 1 Episode 2 New!
16/09 - Ça : Chapitre 2 New!

Membre

Partenaires

Men In Black: International

Men In Black: International
Qualité Web-DL VOSTFR

Men In Black: International
Télécharger Men In Black: International en HD



Origine du film :U.S.A.
Réalisateur(s) :F. Gary Gray
Acteur(s) :Tessa Thompson, Chris Hemsworth, Liam Neeson
Genre :Science fiction,Action,
Année de sortie :2019-06-12
Titre Original :Men In Black: International
Note spectateur : - 2.7/5



Les Men In Black ont toujours protégé la Terre de la vermine de l'univers. Dans cette nouvelle aventure, ils s'attaquent à la menace la plus importante qu'ils aient rencontrée à ce jour : une taupe au sein de l'organisation Men In Black. NFO x264: Show/hide text General Unique ID : 4227293110103367723895511652515509198 (0x32E25A44FC07F46FA73AC271234F3CE) Complete name : Men.in.Black.International.2019.VOSTFR.WEB-DL.x264-ACOOL.WwW.Zone-Telechargement.Net.mkv Format : Matroska Format version : Version 4 / Version 2 File size : 1.09 GiB Duration : 1 h 54 min Overall bit rate : 1 359 kb/s Movie name : Men In Black: International Encoded date : UTC 2019-08-22 21:14:52 Writing application : mkvmerge v25.0.0 ('Prog Noir') 64-bit Writing library : libebml v1.3.6 + libmatroska v1.4.9 Video ID : 1 Format : AVC Format/Info : Advanced Video Codec Format profile : [email protected] Format settings : CABAC / 5 Ref Frames Format settings, CABAC : Yes Format settings, ReFrames : 5 frames Codec ID : V_MPEG4/ISO/AVC Duration : 1 h 54 min Bit rate : 1 100 kb/s Width : 720 pixels Height : 358 pixels Display aspect ratio : 2.017 Frame rate mode : Constant Frame rate : 23.976 (24000/1001) FPS Color space : YUV Chroma subsampling : 4:2:0 Bit depth : 8 bits Scan type : Progressive Bits/(Pixel*Frame) : 0.178 Stream size : 903 MiB (81%) Writing library : x264 core 152 r2851M ba24899 Encoding settings : cabac=1 / ref=5 / deblock=1:-1:-1 / analyse=0x3:0x113 / me=umh / subme=9 / psy=1 / psy_rd=1.00:0.15 / mixed_ref=1 / me_range=16 / chroma_me=1 / trellis=2 / 8x8dct=1 / cqm=0 / deadzone=21,11 / fast_pskip=1 / chroma_qp_offset=-3 / threads=24 / lookahead_threads=2 / sliced_threads=0 / nr=0 / decimate=1 / interlaced=0 / bluray_compat=0 / constrained_intra=0 / bframes=3 / b_pyramid=2 / b_adapt=2 / b_bias=0 / direct=3 / weightb=1 / open_gop=0 / weightp=2 / keyint=250 / keyint_min=23 / scenecut=40 / intra_refresh=0 / rc_lookahead=50 / rc=2pass / mbtree=1 / bitrate=1100 / ratetol=1.0 / qcomp=0.60 / qpmin=0 / qpmax=69 / qpstep=4 / cplxblur=20.0 / qblur=0.5 / ip_ratio=1.40 / aq=1:1.00 Language : English Default : Yes Forced : No Audio ID : 2 Format : AAC Format/Info : Advanced Audio Codec Format profile : LC Codec ID : A_AAC-2 Duration : 1 h 54 min Bit rate : 256 kb/s Channel(s) : 2 channels Channel positions : Front: L R Sampling rate : 48.0 kHz Frame rate : 46.875 FPS (1024 SPF) Compression mode : Lossy Delay relative to video : -43 ms Stream size : 210 MiB (19%) Title : English AAC 2.0 Language : English Default : Yes Forced : No Text #1 ID : 3 Format : UTF-8 Codec ID : S_TEXT/UTF8 Codec ID/Info : UTF-8 Plain Text Duration : 1 h 53 min Bit rate : 49 b/s Count of elements : 1471 Stream size : 40.7 KiB (0%) Title : FULL FR SRT Language : French Default : Yes Forced : Yes Text #2 ID : 4 Format : ASS Codec ID : S_TEXT/ASS Codec ID/Info : Advanced Sub Station Alpha Duration : 1 h 53 min Bit rate : 87 b/s Count of elements : 1471 Compression mode : Lossless Stream size : 72.8 KiB (0%) Title : FULL FR ASS Language : French Default : No Forced : No




Qualité/Format/Langue : Web-DL VOSTFR





Lien de Téléchargement ULTRA RAPIDE (ANONYME&RAPIDE)



Liens De Téléchargement :




Publié : 23-08-2019, 11:51


Commentaires:


Information
Vous devez vous connectez ou vous inscrire pour participer aux commentaires.
Il n'y a pas encore de commentaire sur cette fiche.

Zone-Telechargement n'héberge aucun fichier. La loi francaise vous autorise à telecharger un fichier seulement si vous en possedez l'original. Ni Zone-Telechargement, ni nos hebergeurs, ni personne ne pourront êtres tenu responsables d'une mauvaise utilisation de ce site.